Cookies help us deliver our services. By using our services, you agree to our use of cookies. Learn more
Clear
Filtering by ×
rahul guitar strings
0
This is cool!
54
Download (21.8 MB)

Vlexiax (Ample Guitar)

by Privcrypt

Uploaded on May 15, 2024

File Summary File Name : hkflutiyfp86o5d874s865d9607t-y89.wav sox WARN wav: wave header missing extended part of fmt chunk Channels : 2 Sample Rate : 44100 Precision : 24-bit Duration : 00:01:04.75 = 2855320 samples = 4855.99 CDDA sectors File Size : 22.8M Bit Rate : 2.82M Sample Encoding: 32-bit Floating Point PCM File Detail sox WARN wav: wave header missing extended part of fmt chunk Samples read: 5710640 Length (seconds): 64.746485 Scaled by: 2147483647.0 Maximum ampl...

More info...

All Rights Reserved to Privcrypt
Non-free
Extra considerations: Free To Analyze!

Help us by donating!

Musical Artifacts is an open source web app helping musicians to find, share and preserve the artifacts they use for music production. It's worked on by volunteers in their free time.
As it grows, so do hosting and bandwidth costs. We don't track you or show ads, so we need donations to keep the website up and maintain download speeds.
To contribute without donating money, see this page