Cookies help us deliver our services. By using our services, you agree to our use of cookies. Learn more
Clear
Filtering by ×
no strings attached in deals
0
This is cool!
58
Download (4.77 MB)

Privcrypt Free Violin Strings 3453657868

by Privcrypt

Uploaded on May 15, 2024 (and last updated on May 15, 2024)

File Summary File Name : Privcrypt_2.wav sox WARN wav: wave header missing extended part of fmt chunk Channels : 2 Sample Rate : 44100 Precision : 24-bit Duration : 00:00:14.18 = 625187 samples = 1063.24 CDDA sectors File Size : 5.00M Bit Rate : 2.82M Sample Encoding: 32-bit Floating Point PCM File Detail sox WARN wav: wave header missing extended part of fmt chunk Samples read: 1250374 Length (seconds): 14.176576 Scaled by: 2147483647.0 Maximum amplitude: 1.000000 Minimu...

More info...

Public small Work in the Public Domain
Extra considerations: Free For Musicians////Anyone

Help us by donating!

Musical Artifacts is an open source web app helping musicians to find, share and preserve the artifacts they use for music production. It's worked on by volunteers in their free time.
As it grows, so do hosting and bandwidth costs. We don't track you or show ads, so we need donations to keep the website up and maintain download speeds.
To contribute without donating money, see this page