Cookies help us deliver our services. By using our services, you agree to our use of cookies. Learn more
Clear
Filtering by ×
guitar sample
0
This is cool!
54
Download (21.8 MB)

Vlexiax (Ample Guitar)

by Privcrypt

Uploaded on May 15, 2024

File Summary File Name : hkflutiyfp86o5d874s865d9607t-y89.wav sox WARN wav: wave header missing extended part of fmt chunk Channels : 2 Sample Rate : 44100 Precision : 24-bit Duration : 00:01:04.75 = 2855320 samples = 4855.99 CDDA sectors File Size : 22.8M Bit Rate : 2.82M Sample Encoding: 32-bit Floating Point PCM File Detail sox WARN wav: wave header missing extended part of fmt chunk Samples read: 5710640 Length (seconds): 64.746485 Scaled by: 2147483647.0 Maximum ampl...

More info...

All Rights Reserved to Privcrypt
Non-free
Extra considerations: Free To Analyze!

0
This is cool!
51
Download (9.87 MB)

Nameless Choclates

by Privcrypt

Uploaded on Apr 28, 2024

"Sweeten your sound with Digital Music, Amplify your artistry with Privcrypt Guitar. Nameless Chocolates - where creativity intertwines in every bite." Nameless Chocolates: Indulge in Luxury and Mystery Are you a chocolate lover looking to elevate your taste buds to a whole new level? Look no further than Nameless Chocolates, where luxury meets mystery in every bite. With a wide range of flavors and beautifully crafted designs, Nameless Chocolates is sure to satisfy even ...

More info...

Public small Work in the Public Domain
Extra considerations: Free

0
This is cool!
84
Download (6.26 MB)

Qustioned Answers❔

by Privcrypt

Uploaded on Mar 30, 2024 (and last updated on Apr 01, 2024)

Privcrypt Love Guitar Sample

More info...

Public small Work in the Public Domain
Extra considerations: privcrypt

1
This is cool!
135
Download (205 MB)
Sound Db - Around 0 to -1 Db Max Audio Format / Sample Rate - 16Bit / 384khz Length - ~ 2:15 Minutes Root Key - D#5 External Plugins Used - Izotop Inc. If It Needs To be Link to free ➡️ 🎸 http://tinyurl.com/guitarsoundss *-Just Normalize / Compress / Limit

More info...

Help us by donating!

Musical Artifacts is an open source web app helping musicians to find, share and preserve the artifacts they use for music production. It's worked on by volunteers in their free time.
As it grows, so do hosting and bandwidth costs. We don't track you or show ads, so we need donations to keep the website up and maintain download speeds.
To contribute without donating money, see this page

Tagged with...

privcrypt (6) guitar sample (6)

With format...

wav (6)