Cookies help us deliver our services. By using our services, you agree to our use of cookies. Learn more

0
This is cool!
54
Download (21.8 MB)
Vlexiax (Ample Guitar)

by Privcrypt

Uploaded on May 15, 2024

File Summary File Name : hkflutiyfp86o5d874s865d9607t-y89.wav sox WARN wav: wave header missing extended part of fmt chunk Channels : 2 Sample Rate : 44100 Precision : 24-bit Duration : 00:01:04.75 = 2855320 samples = 4855.99 CDDA sectors File Size : 22.8M Bit Rate : 2.82M Sample Encoding: 32-bit Floating Point PCM

File Detail sox WARN wav: wave header missing extended part of fmt chunk Samples read: 5710640 Length (seconds): 64.746485 Scaled by: 2147483647.0 Maximum amplitude: 0.998714 Minimum amplitude: -1.000000 Midline amplitude: -0.000643 Mean norm: 0.069093 Mean amplitude: -0.000001 RMS amplitude: 0.114763 Maximum delta: 0.954908 Minimum delta: 0.000000 Mean delta: 0.055110 RMS delta: 0.092785 Rough frequency: 5674 Volume adjustment: 1.000

Channel Detail sox WARN wav: wave header missing extended part of fmt chunk Overall Left Right DC offset -0.000002 -0.000002 0.000000 Min level -1.000000 -1.000000 -0.998569 Max level 0.998714 0.998714 0.958557 Pk lev dB 0.00 0.00 -0.01 RMS lev dB -18.80 -18.17 -19.55 RMS Pk dB -6.23 -6.23 -8.34 RMS Tr dB -94.06 -94.06 -93.31 Crest factor - 8.10 9.48 Flat factor 0.00 0.00 0.00 Pk count 2 2 2 Bit-depth 32/32 32/32 32/32 Num samples 2.86M Length s 64.746 Scale max 1.000000 Window s 0.050

More Info

Broken external links? Click to try links for the Wayback Machine.
Go back to seeing the original links.

All Rights Reserved to Privcrypt
Non-free
Extra considerations: Free To Analyze!