Cookies help us deliver our services. By using our services, you agree to our use of cookies. Learn more

0
This is cool!
58
Download (4.77 MB)
Privcrypt Free Violin Strings 3453657868

by Privcrypt

Uploaded on May 15, 2024 (and last updated on May 15, 2024)

File Summary File Name : Privcrypt_2.wav sox WARN wav: wave header missing extended part of fmt chunk Channels : 2 Sample Rate : 44100 Precision : 24-bit Duration : 00:00:14.18 = 625187 samples = 1063.24 CDDA sectors File Size : 5.00M Bit Rate : 2.82M Sample Encoding: 32-bit Floating Point PCM

File Detail sox WARN wav: wave header missing extended part of fmt chunk Samples read: 1250374 Length (seconds): 14.176576 Scaled by: 2147483647.0 Maximum amplitude: 1.000000 Minimum amplitude: -0.888093 Midline amplitude: 0.055953 Mean norm: 0.035092 Mean amplitude: 0.000000 RMS amplitude: 0.079457 Maximum delta: 1.165665 Minimum delta: 0.000000 Mean delta: 0.047717 RMS delta: 0.111460 Rough frequency: 9845 Volume adjustment: 1.000

Channel Detail sox WARN wav: wave header missing extended part of fmt chunk Overall Left Right DC offset 0.000000 0.000000 0.000000 Min level -0.888093 -0.888093 -0.686773 Max level 1.000000 1.000000 0.762027 Pk lev dB -0.00 -0.00 -2.36 RMS lev dB -22.00 -20.81 -23.64 RMS Pk dB -10.95 -10.95 -13.11 RMS Tr dB -78.13 -78.13 -76.52 Crest factor - 10.98 11.58 Flat factor 0.00 0.00 0.00 Pk count 2 2 2 Bit-depth 32/32 32/32 32/32 Num samples 625k Length s 14.177 Scale max 1.000000 Window s 0.050

More Info

Broken external links? Click to try links for the Wayback Machine.
Go back to seeing the original links.

Public Work in the Public Domain
Extra considerations: Free For Musicians////Anyone